DNS SERVER AENDERNum der staatlichen Zensur zu umgehen. Sollten wir von eurem Provider geseprrt werden, nutzt den TOR BROWSER oder ändert euren DNS SERVER.

Filmwünsche können bei uns im Forum abgegeben werden

Wir Speichern Nicht




 
 
 
Top Releases
Im.Zweifel.gluecklich.2017.G...
Deadpool.2.Super.Duper.Cut.2...
Diplomatie.2014.German.AC3.1...
Die.Spur.2017.GERMAN.1080p.B...
Die.Spur.2017.GERMAN.720p.Bl...
Ataris.Reise.2018.German.DL....
Ataris.Reise.2018.German.720...
Stronger.2017.German.DL.1080...
Stronger.2017.German.720p.Bl...
Nur.Gott.kann.mich.richten.2...

Cinedubs
The.Equalizer.2.TS.LD.German...
Der.Hauptmann.2017.German.AA...
Der.Hauptmann.2017.German.AA...
Ghost.Stories.2017.German.AC...
Ghost.Stories.2017.German.AC...
Oceans.8.German.DL.AC3.Dubbe...
Oceans.8.German.DL.AC3.Dubbe...
Hereditary.Das.Vermaechtnis....
Hereditary.Das.Vermaechtnis....
Oceans.8.2018.German.DL.AC3D...

Neuerscheinungen 2017-18
Hot.Dog.2018.German.AC3.1080...
Luna.2017.German.AC3.1080p.B...
Die.Gesetze.der.Thermodynami...
Die.Gesetze.der.Thermodynami...
Kings.2017.German.720p.BluRa...
Kings.2017.German.DL.1080p.B...
Winchester.Das.Haus.der.Verd...
Bodycheck.Youngblood.1986.MU...
The.End.2017.GERMAN.DUAL.COM...
The.End.2017.GERMAN.1080p.Bl...

XXX
RoccoSiffredi.18.08.21.Nancy...
Private.Specials.219.Anal.Lo...
RKPrime.18.08.16.Rose.Monroe...
SexArt.18.08.17.Katy.Sky.And...
WoodmanCastingX.18.06.03.Lin...
PrivateSociety.18.08.15.Audr...
Spizoo.18.08.15.Rocky.Emerso...
PornMegaLoad.18.08.19.Codi.V...
SpyFam.18.08.20.Alina.Lopez....
ThaiGirlsWild.18.08.13.Nicha...
With.Milf.And.Sugar.Please.2...
RoccoSiffredi.18.08.17.Lucia...
Spizoo.18.08.17.Lexi.Lore.Tr...
TeensDoPorn.18.08.20.April.R...
X-Art.18.08.15.Milla.Inside....
ZeroTolerance.Nerdy.Girls.Lo...
RKPrime.18.08.17.Riley.Reid....
PureTaboo.18.08.21.Gracie.Ma...
Yonitale.18.08.17.Nedda.Y.An...
PornMegaLoad.18.08.20.Sofia....

3D
Avengers.Infinity.War.3D.201...
Rampage.Big.Meets.Bigger.3D....
Rampage.Big.Meets.Bigger.3D....
Rampage.Big.Meets.Bigger.3D....
Winter.Games.3D.2013.DUAL.CO...
Tomb.Raider.3D.2018.German.7...
Rampage.Big.Meets.Bigger.3D....
Rampage.Big.Meets.Bigger.3D....
Tomb.Raider.3D.2018.MULTi.CO...
Pacific.Rim.Uprising.3D.2018...
Ready.Player.One.3D.2018.Ger...
Rampage.-.Big.Meets.Bigger.2...
Ready.Player.One.2018.3D.HOU...
Ready.Player.One.2018.3D.HSB...
Ready.Player.One.3D.2018.MUL...

Old_Stuff
Dracula.The.Dark.Lord.2012.G...
21.2008.German.DL.1080p.BluR...
Achtung.fertig.WK.Swissgerma...
The.Ouija.Exorcism.2015.MULT...
Meine.liebe.Rabenmutter.germ...
Da.Vincis.Demons.S01.Complet...
Eragon.Das.Vermaechtnis.der....
Adele.und.das.Geheimnis.des....
Die.fabelhafte.Welt.der.Amel...
Haus.des.Geldes.S01.German.M...
How.I.Met.Your.Mother.S01.Ge...
The.Dark.Knight.Rises.2012.M...
Weissensee.S03.2015.GERMAN.C...
Weissensee.S01+S02.2010.GERM...
Die.Unglaublichen.-.The.Incr...

Filme
Paradise.PD.S01.COMPLETE.Ger...
Hot.Tub.Der.Whirlpool.ist.ne...
Lawless.2013.German.DL.AC3.1...
Vergiss.mein.nicht.2004.Germ...
Saturday.Night.Fever.Directo...
Like.Father.Like.Son.2013.Ge...
Paradise.PD.S01.COMPLETE.Ger...
Tom.Clancys.Jack.Ryan.S01.CO...
Formel.1.Saison.2018.GERMAN....
Tom.Clancys.Jack.Ryan.S01.CO...
The.Day.After.1983.German.DL...
Die.Maechte.des.Wahnsinns.RE...
Darkman.III.Das.Experiment.1...
Mr.Mercedes.S02.German.DD+51...
Mr.Mercedes.S02.German.DD+51...
Mit.der.Waffe.in.der.Hand.19...
Der.bunte.Schleier.2006.Germ...
Push.OPEN.MATTE.2009.German....
Avengers.Age.of.Ultron.2015....
Wir.sind.die.Nacht.2010.Germ...
Real.Steel.OPEN.MATTE.2011.G...
Darkman.1990.Uncut.German.AC...
La.vie.en.rose.2007.BDRip.10...
Narcos.S03D01-3.MULTi.COMPLE...

 
 
Supernatural.S11.COMPLETE.GERMAN.DUBBED.DL.1080p.BluRay.x264-TVP

Jahr: 2015
Genre: Drama | Fantasy | Horror
Sprache: Deutsch AC3 | Englisch AC3
Laufzeit: 41min je Folge
Bitrate: 9500 Kbps
Format: MKV
Größe: 3 GB je Folge
Release:

Beschreibung:

Sam und Dean Winchester sind zwei junge Brüder, die ein Ereignis, das vor 20 Jahren stattfand, zusammengeschweißt hat: Der Tod der Mutter. In ihrem 69er Chevy Impala fahren sie Kreuz und Quer durch das Land und versuchen Geistergeschichten und anderen geheimnisvollen Begebenheiten auf die Spur zu kommen.

 

enthaltene Folgen (Staffel komplett):

Supernatural.S11E01.Das.Feuer.der.Finsternis.GERMAN.DUBBED.DL.1080p.BluRay.x264-TVP 

Supernatural.S11E02.Die.Leere.der.Finsternis.GERMAN.DUBBED.DL.1080p.BluRay.x264-TVP

Supernatural.S11E03.Die.Finsternis.erblueht.GERMAN.DUBBED.DL.1080p.BluRay.x264-TVP 

Supernatural.S11E04.Baby.GERMAN.DUBBED.DL.1080p.BluRay.x264-TVP

Supernatural.S11E05.Lizzi.Borden.GERMAN.DUBBED.DL.1080p.BluRay.x264-TVP 

Supernatural.S11E06.Die.Welt.der.Finsternis.GERMAN.DUBBED.DL.1080p.BluRay.x264-TVP

Supernatural.S11E07.Ursache.und.Wirkung.GERMAN.DUBBED.DL.1080p.BluRay.x264-TVP 

Supernatural.S11E08.Nur.in.meiner.Fantasie.GERMAN.DUBBED.DL.1080p.BluRay.x264-TVP

Supernatural.S11E09.Das.Ende.der.Finsternis.GERMAN.DUBBED.DL.1080p.BluRay.x264-TVP 

Supernatural.S11E10.Die.Auferstehung.der.Finsternis.GERMAN.DUBBED.DL.1080p.BluRay.x264-TVP

Supernatural.S11E11.Im.Nebel.GERMAN.DUBBED.DL.1080p.BluRay.x264-TVP 

Supernatural.S11E12.Vergiss.mein.nicht.GERMAN.DUBBED.DL.1080p.WebHD.x264-TVP

Supernatural.S11E13.Die.Sehnsucht.nach.Finsternis.GERMAN.DUBBED.DL.1080p.BluRay.x264-TVP 

Supernatural.S11E14.Das.Boot.GERMAN.DUBBED.DL.1080p.BluRay.x264-TVP

Supernatural.S11E15.Jenseits.des.Rings.GERMAN.DUBBED.DL.1080p.BluRay.x264-TVP

Supernatural.S11E16.Geisterhaus.GERMAN.DUBBED.DL.1080p.BluRay.x264-TVP

Supernatural.S11E17.Rotes.Fleisch.GERMAN.DUBBED.DL.1080p.BluRay.x264-TVP 

Supernatural.S11E18.Die.Rache.der.Finsternis.GERMAN.DUBBED.DL.1080p.BluRay.x264-TVP

Supernatural.S11E19.Die.Zitterer.GERMAN.DUBBED.DL.1080p.BluRay.x264-TVP 

Supernatural.S11E20.Nenn.mich.nicht.Feigling.GERMAN.DUBBED.DL.1080p.BluRay.x264-TVP

Supernatural.S11E21.Die.Familie.der.Finsternis.GERMAN.DUBBED.DL.1080p.BluRay.x264-TVP 

Supernatural.S11E22.Ein.ungleiches.Buendnis.GERMAN.DUBBED.DL.1080p.BluRay.x264-TVP

Supernatural.S11E23.Das.Licht.der.Finsternis.GERMAN.DUBBED.DL.1080p.BluRay.x264-TVP NEU



General
Complete name                            : Supernatural.S11E01.Das.Feuer.der.Finsternis.GERMAN.DUBBED.DL.1080p.BluRay.x264-TVP\tvp-supernatural-s11e01-1080p.mkv
Format                                   : Matroska
Format version                           : Version 2
File size                                : 2.99 GiB
Duration                                 : 40mn 43s
Overall bit rate                         : 10.5 Mbps
Movie name                               : Supernatural.S11E01.Das.Feuer.der.Finsternis.GERMAN.DUBBED.DL.1080p.BluRay.x264-TVP
Encoded date                             : UTC 2016-11-03 18:14:02
Writing application                      : mkvmerge v5.6.0 ('Kenya Kane') built on May 28 2012 06:47:39
Writing library                          : libebml v1.2.2 + libmatroska v1.3.0

Video
ID                                       : 1
Format                                   : AVC
Format/Info                              : Advanced Video Codec
Format profile                           : High@L4.1
Format settings, CABAC                   : Yes
Format settings, ReFrames                : 4 frames
Codec ID                                 : V_MPEG4/ISO/AVC
Duration                                 : 40mn 43s
Bit rate                                 : 9 535 Kbps
Width                                    : 1 920 pixels
Height                                   : 1 080 pixels
Display aspect ratio                     : 16:9
Frame rate mode                          : Constant
Frame rate                               : 25.000 fps
Original frame rate                      : 23.976 fps
Color space                              : YUV
Chroma subsampling                       : 4:2:0
Bit depth                                : 8 bits
Scan type                                : Progressive
Bits/(Pixel*Frame)                       : 0.184
Stream size                              : 2.77 GiB (93%)
Title                                    : tvp-supernatural-s11e01-1080p
Writing library                          : x264 core 148 r2705 3f5ed56
Encoding settings                        : cabac=1 / ref=4 / deblock=1:1:1 / analyse=0x3:0x133 / me=umh / subme=8 / psy=1 / psy_rd=1.00:0.00 / mixed_ref=1 / me_range=16 / chroma_me=1 / trellis=1 / 8x8dct=1 / cqm=0 / deadzone=21,11 / fast_pskip=0 / chroma_qp_offset=-2 / threads=12 / lookahead_threads=2 / sliced_threads=0 / nr=0 / decimate=1 / interlaced=0 / bluray_compat=0 / constrained_intra=0 / bframes=3 / b_pyramid=2 / b_adapt=2 / b_bias=0 / direct=3 / weightb=1 / open_gop=0 / weightp=2 / keyint=250 / keyint_min=23 / scenecut=40 / intra_refresh=0 / rc_lookahead=50 / rc=2pass / mbtree=1 / bitrate=9535 / ratetol=1.0 / qcomp=0.60 / qpmin=0 / qpmax=69 / qpstep=4 / cplxblur=20.0 / qblur=0.5 / ip_ratio=1.40 / aq=1:1.00
Language                                 : German
Default                                  : Yes
Forced                                   : Yes

Audio #1
ID                                       : 2
Format                                   : AC-3
Format/Info                              : Audio Coding 3
Mode extension                           : CM (complete main)
Format settings, Endianness              : Big
Codec ID                                 : A_AC3
Duration                                 : 40mn 43s
Bit rate mode                            : Constant
Bit rate                                 : 192 Kbps
Channel(s)                               : 2 channels
Channel positions                        : Front: L R
Sampling rate                            : 48.0 KHz
Bit depth                                : 16 bits
Compression mode                         : Lossy
Stream size                              : 55.9 MiB (2%)
Language                                 : German
Default                                  : Yes
Forced                                   : Yes

Audio #2
ID                                       : 3
Format                                   : AC-3
Format/Info                              : Audio Coding 3
Mode extension                           : CM (complete main)
Format settings, Endianness              : Big
Codec ID                                 : A_AC3
Duration                                 : 40mn 43s
Bit rate mode                            : Constant
Bit rate                                 : 384 Kbps
Channel(s)                               : 6 channels
Channel positions                        : Front: L C R, Side: L R, LFE
Sampling rate                            : 48.0 KHz
Bit depth                                : 16 bits
Compression mode                         : Lossy
Stream size                              : 112 MiB (4%)
Language                                 : English
Default                                  : No
Forced                                   : No



Download:
Share-Online.biz Share-Online.bizShare-Online.bizShare-Online.biz | Uploaded.net Uploaded.netUploaded.netUploaded.net
 

Kommentare