DNS SERVER AENDERNum der staatlichen Zensur zu umgehen. Sollten wir von eurem Provider geseprrt werden, nutzt den TOR BROWSER oder ändert euren DNS SERVER.

Filmwünsche können bei uns im Forum abgegeben werden

Wir Speichern Nicht




 
 
 
Top Releases
Early.Man.Steinzeit.Bereit.2...
A.Beautiful.Day.2017.German....
Early.Man.Steinzeit.bereit.2...
Early.Man.Steinzeit.bereit.2...
A.Breath.Away.2018.German.AC...
Die.UFO-Verschwoerung.2018.G...
Deadpool.2.Kinofassung.2018....
Nur.Gott.kann.mich.richten.2...
Red.Dog.Mein.treuer.Freund.2...
The.Kings.Ring.Die.Letzte.Sc...

Cinedubs
Ant-Man.and.the.Wasp.TS.LD.G...
I.Feel.Pretty.2018.German.AC...
I.Feel.Pretty.2018.German.AC...
Skyscraper.2018.German.AC3LD...
Jurassic.World.2.Das.gefalle...
Jurassic.World.2.Das.gefalle...
Jurassic.World.2.Das.gefalle...
Skyscraper.2018.German.AC3LD...
Skyscraper.2018.German.AC3LD...
Die.Biene.Maja.2.Die.Honigsp...

Neuerscheinungen 2017-18
Die.Strategie.der.Spinne.Str...
Brueder.Teil.2.2017.German.1...
Brueder.Teil.1.2017.German.1...
Bayern.sagenhaft.2017.GERMAN...
Global.Storm.Die.finale.Kata...
The.End.2017.German.AC3.DL.1...
Tsotsi.2005.MULTi.COMPLETE.B...
Meuterei.auf.der.Todesinsel....
Undercover.Grandpa.2017.Germ...
Undercover.Grandpa.2017.Germ...

XXX
UpHerAsshole.18.07.05.Anny.A...
VIPArea.18.01.11.Elle.Alexan...
VIPArea.17.12.23.Abby.Cross....
TeensLoveBlackCocks.18.08.27...
TransAngels.18.03.19.Bianka....
SweetSinner.18.07.05.Kenna.J...
VIPArea.17.02.28.Emily.Addis...
VIPArea.18.01.02.Capri.Ander...
TMWVRNet.18.07.06.Roxy.Lips....
TabooPOV.18.07.05.Sarah.Vand...
VIPArea.18.03.15.Hayden.Hawk...
TransAngels.18.03.05.Foxxy.M...
TeensLoveHugeCocks.18.07.06....
VIPArea.18.01.29.Emily.Addis...
UltimateSurrender.18.07.04.C...
TeachMeFisting.18.08.27.Anto...
TheFuckingClinic.18.07.06.La...
TransAngels.18.03.12.Chanel....
Swallowed.18.07.06.Bobbi.Dyl...
VIPArea.18.02.02.Gracie.Glam...

3D
Avengers.Infinity.War.3D.201...
Avengers.Infinity.War.3D.201...
Rampage.Big.Meets.Bigger.3D....
Rampage.Big.Meets.Bigger.3D....
Rampage.Big.Meets.Bigger.3D....
Winter.Games.3D.2013.DUAL.CO...
Tomb.Raider.3D.2018.German.7...
Rampage.Big.Meets.Bigger.3D....
Rampage.Big.Meets.Bigger.3D....
Tomb.Raider.3D.2018.MULTi.CO...
Pacific.Rim.Uprising.3D.2018...
Ready.Player.One.3D.2018.Ger...
Rampage.-.Big.Meets.Bigger.2...
Ready.Player.One.2018.3D.HOU...
Ready.Player.One.2018.3D.HSB...

Old_Stuff
Vikings.S02.German.DL.1080p....
Be.Kind.Rewind.Abgedreht.200...
Be.Kind.Rewind.Abgedreht.200...
Dracula.The.Dark.Lord.2012.G...
21.2008.German.DL.1080p.BluR...
Achtung.fertig.WK.Swissgerma...
The.Ouija.Exorcism.2015.MULT...
Meine.liebe.Rabenmutter.germ...
Da.Vincis.Demons.S01.Complet...
Eragon.Das.Vermaechtnis.der....
Adele.und.das.Geheimnis.des....
Die.fabelhafte.Welt.der.Amel...
Haus.des.Geldes.S01.German.M...
How.I.Met.Your.Mother.S01.Ge...
The.Dark.Knight.Rises.2012.M...

Filme
Stan.Lees.Lucky.Man.S03.GERM...
Stan.Lees.Lucky.Man.S03.GERM...
Marvels.Agents.of.S.H.I.E.L....
Marvels.Agents.of.S.H.I.E.L....
Modern.Family.S08.GERMAN.DUB...
Modern.Family.S08.GERMAN.DUB...
Longmire.S05.GERMAN.AC3.DL.H...
Men.in.Black.II.2002.German....
Louis.und.seine.ausserirdisc...
The.Looming.Tower.S01.COMPLE...
Wie.das.Leben.so.spielt.2009...
Jumanji.4K.Remastered.1995.G...
Die.Teufelin.1989.German.720...
Die.Teufelin.1989.German.DL....
Theater.des.Grauens.1973.Ger...
Theater.des.Grauens.1973.Ger...
The.Looming.Tower.S01.COMPLE...
Hell.on.Wheels.S01-S04.Germa...
The.Wood.1999.German.AC3D.DL...
Insomnia.-.Todesschlaf.1997....
Blue.Chips.1994.German.AC3D....
Bodycheck.1986.German.DL.108...
Heisse.Katzen.1967.German.DL...
MotoGP.Moto2.Moto3.Saison.20...

 
 
The.Big.Bang.Theory.S09.COMPLETE.German.DL.720p.BluRay.x264-iNTENTiON

Jahr: 2015
Genre: Komödie
Sprache: Deutsch AC3 | Englisch AC3
Laufzeit: 21min je Folge
Bitrate: 2300 Kbps
Format: MKV
Größe: 500MB je Folge
Release:

Beschreibung:

Leonard Hofstadter (Johnny Galecki) und Sheldon Cooper (Jim Parsons) sind geniale Physiker, doch im sozialen Kontakt mit der "normalen" Umwelt hat insbesondere Sheldon so seine Probleme. Gemeinsam bewohnen sie eine WG, in der auch ihre besten Freunde Howard (Simon Helberg) und Raj (Kunal Nayyar) ein- und ausgehen. Nachbarin Penny (Kaley Cuoco) kann mit den merkwürdigen Nerds und ihren Spleens zunächst wenig anfangen, doch bald wächst ihr die Gruppe ans Herz.



General
Complete name                            : The.Big.Bang.Theory.S09E01.German.DL.720p.BluRay.x264-iNTENTiON\the.big.bang.theory.s09e01.german.dl.720p.bluray.x264-intention.mkv
Format                                   : Matroska
Format version                           : Version 2
File size                                : 502 MiB
Duration                                 : 20mn 26s
Overall bit rate                         : 3 432 Kbps
Writing application                      : mkvmerge v6.6.0 ('The Edge Of The In Between') built on Dec 1 2013 17:55:00
Writing library                          : libebml v1.3.0 + libmatroska v1.4.1

Video
ID                                       : 1
Format                                   : AVC
Format/Info                              : Advanced Video Codec
Format profile                           : High@L4.1
Format settings, CABAC                   : Yes
Format settings, ReFrames                : 5 frames
Codec ID                                 : V_MPEG4/ISO/AVC
Duration                                 : 20mn 26s
Bit rate                                 : 2 340 Kbps
Width                                    : 1 280 pixels
Height                                   : 720 pixels
Display aspect ratio                     : 16:9
Frame rate mode                          : Constant
Frame rate                               : 23.976 fps
Color space                              : YUV
Chroma subsampling                       : 4:2:0
Bit depth                                : 8 bits
Scan type                                : Progressive
Bits/(Pixel*Frame)                       : 0.106
Stream size                              : 342 MiB (68%)
Writing library                          : x264 core 148 r2721 72d53ab
Encoding settings                        : cabac=1 / ref=5 / deblock=1:-3:-3 / analyse=0x3:0x133 / me=umh / subme=8 / psy=1 / psy_rd=1.00:0.15 / mixed_ref=1 / me_range=16 / chroma_me=1 / trellis=1 / 8x8dct=1 / cqm=0 / deadzone=21,11 / fast_pskip=0 / chroma_qp_offset=-3 / threads=12 / lookahead_threads=2 / sliced_threads=0 / nr=0 / decimate=1 / interlaced=0 / bluray_compat=0 / constrained_intra=0 / bframes=3 / b_pyramid=2 / b_adapt=2 / b_bias=0 / direct=3 / weightb=1 / open_gop=0 / weightp=2 / keyint=240 / keyint_min=24 / scenecut=40 / intra_refresh=0 / rc_lookahead=50 / rc=crf / mbtree=1 / crf=20.0 / qcomp=0.60 / qpmin=0 / qpmax=69 / qpstep=4 / ip_ratio=1.40 / aq=1:1.00
Language                                 : English
Default                                  : Yes
Forced                                   : No

Audio #1
ID                                       : 2
Format                                   : AC-3
Format/Info                              : Audio Coding 3
Mode extension                           : CM (complete main)
Format settings, Endianness              : Big
Codec ID                                 : A_AC3
Duration                                 : 20mn 26s
Bit rate mode                            : Constant
Bit rate                                 : 384 Kbps
Channel(s)                               : 6 channels
Channel positions                        : Front: L C R, Side: L R, LFE
Sampling rate                            : 48.0 KHz
Bit depth                                : 16 bits
Compression mode                         : Lossy
Stream size                              : 56.1 MiB (11%)
Language                                 : German
Default                                  : Yes
Forced                                   : No

Audio #2
ID                                       : 3
Format                                   : AC-3
Format/Info                              : Audio Coding 3
Mode extension                           : CM (complete main)
Format settings, Endianness              : Big
Codec ID                                 : A_AC3
Duration                                 : 20mn 26s
Bit rate mode                            : Constant
Bit rate                                 : 640 Kbps
Channel(s)                               : 6 channels
Channel positions                        : Front: L C R, Side: L R, LFE
Sampling rate                            : 48.0 KHz
Bit depth                                : 16 bits
Compression mode                         : Lossy
Stream size                              : 93.6 MiB (19%)
Language                                 : English
Default                                  : Yes
Forced                                   : No

Menu
00:00:00.000                             : en:00:00:00.000
00:03:49.229                             : en:00:03:49.229
00:10:56.906                             : en:00:10:56.906
00:18:47.126                             : en:00:18:47.126
00:19:58.447                             : en:00:19:58.447



Download:
Share-Online.biz Share-Online.bizShare-Online.bizShare-Online.biz | Uploaded.net Uploaded.netUploaded.netUploaded.net
 

Kommentare