Dog Days | Ranma ½ (170) | Running Man Ep.227Booba - Trone 2017 | Konohana Kitan Subtitle Indonesia | The.Big.Bang.Theory.S05.German.DD51.Dubbed.DL.1080p.BD.x264-TVS
 


 

DNS SERVER AENDERNum der staatlichen Zensur zu umgehen. Sollten wir von eurem Provider geseprrt werden, nutzt den TOR BROWSER oder ändert euren DNS SERVER.

Filmwünsche können bei uns im Forum abgegeben werden

Wir Speichern Nicht




 
 
 
Top Releases
Deadpool.2.Super.Duper.Cut.2...
David.Brent.Life.on.the.Road...
David.Brent.Life.on.the.Road...
Amanda.Knox.2016.German.DL.D...
Amanda.Knox.2016.German.DL.D...
22.Bullets.2010.German.DL.10...
Unsere.Erde.2.Earth.One.Amaz...
Avengers.Infinity.War.2018.M...
El.Autor.2017.German.1080p.W...
El.Autor.2017.German.720p.WE...

Cinedubs
The.Equalizer.2.TS.LD.German...
Der.Hauptmann.2017.German.AA...
Der.Hauptmann.2017.German.AA...
Ghost.Stories.2017.German.AC...
Ghost.Stories.2017.German.AC...
Oceans.8.German.DL.AC3.Dubbe...
Oceans.8.German.DL.AC3.Dubbe...
Hereditary.Das.Vermaechtnis....
Hereditary.Das.Vermaechtnis....
Oceans.8.2018.German.DL.AC3D...

Neuerscheinungen 2017-18
Vater.des.Jahres.2018.German...
The.End.2017.GERMAN.720p.Blu...
Derren.Brown.The.Push.2018.G...
Derren.Brown.The.Push.2018.G...
Das.Vermaechtnis.des.Weisswe...
Das.Vermaechtnis.des.Weisswe...
Barry.2016.German.DL.720p.WE...
Barry.2016.German.DL.1080p.W...
Godzilla.Eine.Stadt.am.Rande...
Godzilla.Eine.Stadt.am.Rande...

XXX
LaCochonne.18.08.21.Clementi...
KarupsPC.18.08.20.Tarra.And....
MilfsLikeItBig.18.08.21.Nina...
NewSensations.18.08.17.Abell...
Nubiles.18.08.21.Eva.Kays.Wa...
Nubiles.18.08.17.Eva.Kays.Pl...
MetArtX.18.08.21.Sabrisse.A....
ManuelFerrara.18.08.20.Lena....
OldYoungLesbianLove.18.08.20...
MilfHunter.18.08.20.Lela.Sta...
OnlyBlowJob.18.08.16.Silvia....
Nubiles.18.08.20.Eliza.Ibarr...
KinkyFamily.18.08.11.Ana.Ros...
MilfsLikeItBig.18.08.20.Chan...
MetArt.18.08.21.Jennifer.Lov...
Nubiles.18.08.16.Eliza.Ibarr...
MomsBangTeens.18.08.21.Lexi....
Nubiles.18.08.21.Maria.Rubio...
No.Not.My.Wrinkled.Starfish....
NFBusty.18.08.17.Nikki.Delan...

3D
Avengers.Infinity.War.3D.201...
Rampage.Big.Meets.Bigger.3D....
Rampage.Big.Meets.Bigger.3D....
Rampage.Big.Meets.Bigger.3D....
Winter.Games.3D.2013.DUAL.CO...
Tomb.Raider.3D.2018.German.7...
Rampage.Big.Meets.Bigger.3D....
Rampage.Big.Meets.Bigger.3D....
Tomb.Raider.3D.2018.MULTi.CO...
Pacific.Rim.Uprising.3D.2018...
Ready.Player.One.3D.2018.Ger...
Rampage.-.Big.Meets.Bigger.2...
Ready.Player.One.2018.3D.HOU...
Ready.Player.One.2018.3D.HSB...
Ready.Player.One.3D.2018.MUL...

Old_Stuff
Meine.liebe.Rabenmutter.germ...
Da.Vincis.Demons.S01.Complet...
Eragon.Das.Vermaechtnis.der....
Adele.und.das.Geheimnis.des....
Die.fabelhafte.Welt.der.Amel...
Haus.des.Geldes.S01.German.M...
How.I.Met.Your.Mother.S01.Ge...
The.Dark.Knight.Rises.2012.M...
Weissensee.S03.2015.GERMAN.C...
Weissensee.S01+S02.2010.GERM...
Die.Unglaublichen.-.The.Incr...
Der.grosse.Trick.1978.German...
Sully.2016.MULTi.COMPLETE.BL...
Tremors.3.Die.neue.Brut.2001...
Die.Indianer.von.Cleveland.2...

Filme
Warrior.2011.German.DL.DTSD....
Ein.Zwilling.kommt.selten.al...
Ein.Zwilling.kommt.selten.al...
Dream.Cruise.Albtraum.aus.de...
Flodder.Eine.Familie.zum.Knu...
Buck.Rogers.1979.German.DL.A...
Buck.Rogers.1979.German.DL.A...
A.Thought.of.Ecstasy.2017.Ge...
Flicka.1943.German.AC3D.DL.1...
Meine.teuflischen.Nachbarn.1...
Flodder.Forever.Eine.Familie...
Endstation.Horror.UNCUT.1972...
Der.alte.Mann.und.das.Kind.1...
Motel.Massaker.1986.German.A...
Lucifer.S03.COMPLETE.German....
Succession.S01.German.DD51.S...
Succession.S01.German.DD51.S...
Preacher.S03.COMPLETE.German...
Preacher.S03.COMPLETE.German...
Lucifer.S03.COMPLETE.German....
How.to.Party.with.Mom.2018.G...
Agenten.sterben.einsam.aka.W...
The.Mother.of.Tears.UNCUT.20...
Seine.Frau.hilft.Geld.verdie...

 
 
Oceans.8.2018.German.DL.AC3D.1080p.WebHD.x265-FuN

Jahr: 2018
Genre: Komödie, Krimi
Sprache: Deutsch AC3 | Englisch AC3
Laufzeit: 1h 50mn
Bitrate: 1 912 Kbps
Format: MKV
Größe: 1.47 GiB
Release:

Beschreibung:

Was ihr Bruder kann, kann sie schon lange: Debbie Ocean die Schwester von Gauner Danny Ocean, ist aus dem Knast entlassen worden und stellt ein Team von Meisterdiebinnen zusammen, um den hieb- und stichfesten Coup umzusetzen, den sie während ihrer Zeit im Gefängnis geplant hat: Gemeinsam mit ihrer Komplizin Lou Miller versammelt sie die Juwelierin Amita die Trickbetrügerin Constance die Hehler-Expertin Tammy die Hackerin Nine Ball und die Modedesignerin Rose , um der weltberühmten Schauspielerin Daphne Kluger bei der Met Gala eine wertvolle Halskette im Wert von 150 Millionen Dollar zu stehlen – und sich dabei an einem fiesen Galeriebesitzer zu rächen...



Complete name                            : funxd.mkv
Format                                   : Matroska
Format version                           : Version 4 / Version 2
File size                                : 1.47 GiB
Duration                                 : 1h 50mn
Overall bit rate                         : 1 912 Kbps
Encoded date                             : UTC 2018-08-23 18:37:36
Writing application                      : mkvmerge v25.0.0 ('Prog Noir') 64-bit
Writing library                          : libebml v1.3.6 + libmatroska v1.4.9

Video
ID                                       : 1
Format                                   : HEVC
Format/Info                              : High Efficiency Video Coding
Format profile                           : Main@L4.0
Codec ID                                 : V_MPEGH/ISO/HEVC
Duration                                 : 1h 50mn
Bit rate                                 : 1 106 Kbps
Width                                    : 1 920 pixels
Height                                   : 804 pixels
Display aspect ratio                     : 2.40:1
Frame rate mode                          : Constant
Frame rate                               : 23.976 fps
Color space                              : YUV
Chroma subsampling                       : 4:2:0
Bit depth                                : 8 bits
Bits/(Pixel*Frame)                       : 0.030
Stream size                              : 871 MiB (58%)
Writing library                          : x265 2.6:[Windows][GCC 7.3.0][64 bit] 8bit+10bit+12bit
Encoding settings                        : cpuid=1173503 / frame-threads=3 / numa-pools=8 / wpp / no-pmode / no-pme / no-psnr / no-ssim / log-level=2 / input-csp=1 / input-res=1920x804 / interlace=0 / total-frames=0 / level-idc=0 / high-tier=1 / uhd-bd=0 / ref=3 / no-allow-non-conformance / no-repeat-headers / annexb / no-aud / no-hrd / info / hash=0 / no-temporal-layers / open-gop / min-keyint=24 / keyint=240 / bframes=4 / b-adapt=2 / b-pyramid / bframe-bias=0 / rc-lookahead=20 / lookahead-slices=5 / scenecut=40 / no-intra-refresh / ctu=64 / min-cu-size=8 / no-rect / no-amp / max-tu-size=32 / tu-inter-depth=1 / tu-intra-depth=1 / limit-tu=0 / rdoq-level=0 / dynamic-rd=0.00 / no-ssim-rd / signhide / no-tskip / nr-intra=0 / nr-inter=0 / no-constrained-intra / no-strong-intra-smoothing / max-merge=2 / limit-refs=3 / no-limit-modes / me=1 / subme=2 / merange=57 / temporal-mvp / weightp / no-weightb / no-analyze-src-pics / deblock=0:0 / no-sao / no-sao-non-deblock / rd=3 / no-early-skip / rskip / no-fast-intra / no-tskip-fast / no-cu-lossless / no-b-intra / no-splitrd-skip / rdpenalty=0 / psy-rd=2.00 / psy-rdoq=0.00 / no-rd-refine / analysis-reuse-mode=0 / no-lossless / cbqpoffs=0 / crqpoffs=0 / rc=crf / crf=23.0 / qcomp=0.60 / qpstep=4 / stats-write=0 / stats-read=0 / ipratio=1.40 / pbratio=1.30 / aq-mode=1 / aq-strength=1.00 / cutree / zone-count=0 / no-strict-cbr / qg-size=32 / no-rc-grain / qpmax=69 / qpmin=0 / no-const-vbv / sar=1 / overscan=0 / videoformat=5 / range=0 / colorprim=1 / transfer=1 / colormatrix=1 / chromaloc=0 / display-window=0 / max-cll=0,0 / min-luma=0 / max-luma=255 / log2-max-poc-lsb=8 / vui-timing-info / vui-hrd-info / slices=1 / no-opt-qp-pps / no-opt-ref-list-length-pps / no-multi-pass-opt-rps / scenecut-bias=0.05 / no-opt-cu-delta-qp / no-aq-motion / no-hdr / no-hdr-opt / no-dhdr10-opt / analysis-reuse-level=5 / scale-factor=0 / refine-intra=0 / refine-inter=0 / refine-mv=0 / no-limit-sao / ctu-info=0 / no-lowpass-dct / refine-mv-type=0 / copy-pic=1
Default                                  : Yes
Forced                                   : No
DURATION                                 : 01:50:07.768000000
NUMBER_OF_FRAMES                         : 158428
NUMBER_OF_BYTES                          : 942859214
_STATISTICS_WRITING_APP                  : mkvmerge v25.0.0 ('Prog Noir') 64-bit
_STATISTICS_WRITING_DATE_UTC             : 2018-08-23 18:37:36
_STATISTICS_TAGS                         : BPS DURATION NUMBER_OF_FRAMES NUMBER_OF_BYTES

Audio #1
ID                                       : 2
Format                                   : AC-3
Format/Info                              : Audio Coding 3
Mode extension                           : CM (complete main)
Format settings, Endianness              : Big
Codec ID                                 : A_AC3
Duration                                 : 1h 50mn
Bit rate mode                            : Constant
Bit rate                                 : 384 Kbps
Channel(s)                               : 2 channels
Channel positions                        : Front: L R
Sampling rate                            : 48.0 KHz
Bit depth                                : 16 bits
Compression mode                         : Lossy
Delay relative to video                  : -42ms
Stream size                              : 302 MiB (20%)
Title                                    : Stereo
Language                                 : German
Default                                  : Yes
Forced                                   : Yes
DURATION                                 : 01:50:07.872000000
NUMBER_OF_FRAMES                         : 206496
NUMBER_OF_BYTES                          : 317177856
_STATISTICS_WRITING_APP                  : mkvmerge v25.0.0 ('Prog Noir') 64-bit
_STATISTICS_WRITING_DATE_UTC             : 2018-08-23 18:37:36
_STATISTICS_TAGS                         : BPS DURATION NUMBER_OF_FRAMES NUMBER_OF_BYTES

Audio #2
ID                                       : 3
Format                                   : AC-3
Format/Info                              : Audio Coding 3
Mode extension                           : CM (complete main)
Format settings, Endianness              : Big
Codec ID                                 : A_AC3
Duration                                 : 1h 50mn
Bit rate mode                            : Constant
Bit rate                                 : 384 Kbps
Channel(s)                               : 6 channels
Channel positions                        : Front: L C R, Side: L R, LFE
Sampling rate                            : 48.0 KHz
Bit depth                                : 16 bits
Compression mode                         : Lossy
Delay relative to video                  : -42ms
Stream size                              : 302 MiB (20%)
Title                                    : Surround
Language                                 : English
Default                                  : No
Forced                                   : No
DURATION                                 : 01:50:07.808000000
NUMBER_OF_FRAMES                         : 206494
NUMBER_OF_BYTES                          : 317174784
_STATISTICS_WRITING_APP                  : mkvmerge v25.0.0 ('Prog Noir') 64-bit
_STATISTICS_WRITING_DATE_UTC             : 2018-08-23 18:37:36
_STATISTICS_TAGS                         : BPS DURATION NUMBER_OF_FRAMES NUMBER_OF_BYTES

Text #1
ID                                       : 4
Format                                   : ASS
Codec ID                                 : S_TEXT/ASS
Codec ID/Info                            : Advanced Sub Station Alpha
Compression mode                         : Lossless
Title                                    : forced
Language                                 : German
Default                                  : Yes
Forced                                   : Yes
DURATION                                 : 01:25:07.906000000
NUMBER_OF_FRAMES                         : 34
NUMBER_OF_BYTES                          : 1861
_STATISTICS_WRITING_APP                  : mkvmerge v25.0.0 ('Prog Noir') 64-bit
_STATISTICS_WRITING_DATE_UTC             : 2018-08-23 18:37:36
_STATISTICS_TAGS                         : BPS DURATION NUMBER_OF_FRAMES NUMBER_OF_BYTES

Text #2
ID                                       : 5
Format                                   : ASS
Codec ID                                 : S_TEXT/ASS
Codec ID/Info                            : Advanced Sub Station Alpha
Compression mode                         : Lossless
Title                                    : full hearing impaired
Language                                 : English
Default                                  : No
Forced                                   : No
DURATION                                 : 01:43:41.016000000
NUMBER_OF_FRAMES                         : 1894
NUMBER_OF_BYTES                          : 99719
_STATISTICS_WRITING_APP                  : mkvmerge v25.0.0 ('Prog Noir') 64-bit
_STATISTICS_WRITING_DATE_UTC             : 2018-08-23 18:37:36
_STATISTICS_TAGS                         : BPS DURATION NUMBER_OF_FRAMES NUMBER_OF_BYTES


Download:
Share Online Share OnlineShare OnlineShare Online
 

Kommentare