La sombra de la ley streaming vk | La sombra de la ley vf | La sombra de la ley vk streamBill Prady | saison 2, épisode 12 - Chapitre 25 : Envers et contre tous | Soundtracks de Videojuegos
 


 

DNS SERVER AENDERNum der staatlichen Zensur zu umgehen. Sollten wir von eurem Provider geseprrt werden, nutzt den TOR BROWSER oder ändert euren DNS SERVER.

Filmwünsche können bei uns im Forum abgegeben werden

Wir Speichern Nicht




 
 
 
Top Releases
Jurassic.World.2.Das.gefalle...
Jurassic.World.2.Das.gefalle...
Racer.and.the.Jailbird.2017....
Racer.and.the.Jailbird.2017....
Racer.and.the.Jailbird.2017....
The.Girl.on.Train.2016.PROPE...
Solo.A.Star.Wars.Story.2018....
Solo.A.Star.Wars.Story.2018....
Solo.A.Star.Wars.Story.2018....
Outrage.Coda.GERMAN.2017.DL....

Cinedubs
Book.Club.Das.Beste.kommt.n...
Book.Club.Das.Beste.kommt.n...
Sicario.2.2018.German.AC3MD....
Sicario.2.2018.German.AC3MD....
No.Way.Out.Gegen.die.Flammen...
No.Way.Out.Gegen.die.Flammen...
The.First.Purge.German.DL.AC...
The.First.Purge.German.DL.AC...
Hotel.Transsilvanien.3.Ein.M...
Hotel.Transsilvanien.3.Ein.M...

Neuerscheinungen 2017-18
Alte.Zoepfe.2018.German.DL.1...
Alte.Zoepfe.2018.German.DL.7...
Gosford.Park.2001.MULTi.COMP...
Steig.Nicht.Aus.2018.German....
Steig.Nicht.Aus.2018.German....
Triassic.World.2018.German.7...
Triassic.World.2018.German.D...
Steig.Nicht.Aus.2018.GERMAN....
Triassic.World.2018.MULTi.CO...
Anne.Clark.I.Will.Walk.Out.I...

XXX
JapanHDV.18.09.10.Kiyoha.Him...
InterracialPass.18.09.07.Mel...
InnocentHigh.18.09.10.Karla....
Lustery.E134.James.And.Val.T...
LittleCapriceDreams.18.09.07...
JulesJordan.18.09.07.Julie.K...
Latin.Amateurs.Watch.Me.Bang...
I.Fucked.Your.Step.Father.9....
KimberLeeLive.18.09.03.Kimbe...
LoveHerFeet.18.09.07.Emily.W...
IKnowThatGirl.18.09.09.Eliza...
Lustery.E135.Asteria.And.Uly...
I.Fucked.Your.Step.Father.9....
KarupsOW.18.09.07.Victoria.P...
KimberLeeLive.18.08.24.Crave...
KarupsHA.18.09.10.Lenna.Lux....
KimberLeeLive.18.09.07.Ashly...
Hustler.18.09.09.Vanessa.Sky...
LezCuties.18.09.07.Zazie.Sky...
JulesJordan.18.09.10.Angela....

3D
Solo.A.Star.Wars.Story.3D.20...
Solo.A.Star.Wars.Story.3D.20...
Die.Biene.Maja.2.Die.Honigsp...
Avengers.Infinity.War.3D.201...
Avengers.Infinity.War.3D.201...
Rampage.Big.Meets.Bigger.3D....
Rampage.Big.Meets.Bigger.3D....
Rampage.Big.Meets.Bigger.3D....
Winter.Games.3D.2013.DUAL.CO...
Tomb.Raider.3D.2018.German.7...
Rampage.Big.Meets.Bigger.3D....
Rampage.Big.Meets.Bigger.3D....
Tomb.Raider.3D.2018.MULTi.CO...
Pacific.Rim.Uprising.3D.2018...
Ready.Player.One.3D.2018.Ger...

Old_Stuff
How.I.Met.Your.Mother.S02.Ge...
Akte.X.S01.German.DTS.DL.108...
Den.Himmel.gibts.echt.DL.108...
Vikings.S02.German.DL.1080p....
Be.Kind.Rewind.Abgedreht.200...
Be.Kind.Rewind.Abgedreht.200...
Dracula.The.Dark.Lord.2012.G...
21.2008.German.DL.1080p.BluR...
Achtung.fertig.WK.Swissgerma...
The.Ouija.Exorcism.2015.MULT...
Meine.liebe.Rabenmutter.germ...
Da.Vincis.Demons.S01.Complet...
Eragon.Das.Vermaechtnis.der....
Adele.und.das.Geheimnis.des....
Die.fabelhafte.Welt.der.Amel...

Filme
The.Dentist.1996.German.1080...
Eves.Bayou.1997.German.1080p...
Eves.Bayou.1997.German.720p....
Deadfall.1993.German.1080p.W...
Drugstore.Cowboy.1989.German...
Kids.In.den.Strassen.New.Yor...
Disneys.Ein.Frechdachs.im.Ma...
Cardinal.S01.COMPLETE.German...
Wie.man.Erfolg.hat.ohne.sich...
Cardinal.S01.COMPLETE.German...
Cradle.of.Fear.2001.German.D...
Gewalt.und.Leidenschaft.1974...
Der.Champ.1979.German.AC3D.D...
And.the.Oscar.Goes.To.2014.G...
Meisterschaft.im.Seitensprun...
Maniac.S01.COMPLETE.GERMAN.D...
Maniac.S01.COMPLETE.GERMAN.D...
The.Good.Cop.S01.GERMAN.DL.1...
The.Good.Cop.S01.GERMAN.DL.7...
Fühlen.Sie.sich.manchmal.au...
The.Last.Man.On.Earth.S04.Ge...
The.Last.Man.On.Earth.S04.Ge...
eXistenZ.GERMAN.1999.DL.1080...
eXistenZ.GERMAN.1999.DL.720p...

 
 
 Book.Club.Das.Beste.kommt.noch.2018.GERMAN.AC3.MD.DL.720p.BluRay.x264-CARTEL

Jahr: 2018
Genre: Komödie
Sprache: Deutsch AC3 | Englisch DTS
Laufzeit: 1h 43mn
Bitrate: 6 224 Kbps
Format: MKV
Größe: 4.51 GiB
Release:

Beschreibung:

Vivian (Jane Fonda), Diane (Diane Keaton), Carol (Mary Steenburgen) und Sharon (Candice Bergen) kennen sich schon ihr halbes Leben und sind gemeinsam durch dick und dünn gegangen. Nun sind sie allesamt über 60 und nach wie vor beste Freundinnen. In ihrem regelmäßig stattfindenden Buchclub treffen sich die Vier, um bei jeder Menge Wein über alle möglichen Themen zu reden, nur um Männer geht es dabei zumeist nicht mehr. Das ändert sich jedoch schlagartig, als Vivian ihren Freundinnen das neue Buch vorstellt, dass sie gerade liest: Den Sado-Maso-Bestseller „Fifty Shades of Grey“ von E.L. James. Die erotische Lektüre stellt das (Liebes-)Leben der vier Damen auf den Kopf und sie finden sich auf einmal in einer Reihe von aufregenden romantischen Abenteuern wieder…

 

Audio........ GER AC3 2CH 192 Kbps (own Mic)


Complete name                            : cartel-bocludabekono-720.mkv
Format                                   : Matroska
Format version                           : Version 2
File size                                : 4.51 GiB
Duration                                 : 1h 43mn
Overall bit rate                         : 6 224 Kbps
Encoded date                             : UTC 2018-09-21 13:27:42
Writing application                      : mkvmerge v26.0.0 ('In The Game') 64-bit
Writing library                          : libebml v1.3.6 + libmatroska v1.4.9
DURATION                                 : 00:00:02.586000000
NUMBER_OF_FRAMES                         : 1
NUMBER_OF_BYTES                          : 29
_STATISTICS_WRITING_APP                  : mkvmerge v26.0.0 ('In The Game') 64-bit
_STATISTICS_WRITING_DATE_UTC             : 2018-09-21 13:27:42
_STATISTICS_TAGS                         : BPS DURATION NUMBER_OF_FRAMES NUMBER_OF_BYTES

Video
ID                                       : 1
Format                                   : AVC
Format/Info                              : Advanced Video Codec
Format profile                           : High@L4.1
Format settings, CABAC                   : Yes
Format settings, ReFrames                : 5 frames
Codec ID                                 : V_MPEG4/ISO/AVC
Duration                                 : 1h 43mn
Bit rate                                 : 4 521 Kbps
Width                                    : 1 280 pixels
Height                                   : 536 pixels
Display aspect ratio                     : 2.40:1
Frame rate mode                          : Constant
Frame rate                               : 23.976 fps
Color space                              : YUV
Chroma subsampling                       : 4:2:0
Bit depth                                : 8 bits
Scan type                                : Progressive
Bits/(Pixel*Frame)                       : 0.275
Stream size                              : 3.19 GiB (71%)
Writing library                          : x264 core 155 r2901 7d0ff22
Encoding settings                        : cabac=1 / ref=5 / deblock=1:-3:-3 / analyse=0x3:0x113 / me=umh / subme=8 / psy=1 / psy_rd=1.00:0.00 / mixed_ref=1 / me_range=16 / chroma_me=1 / trellis=1 / 8x8dct=1 / cqm=0 / deadzone=21,11 / fast_pskip=1 / chroma_qp_offset=-2 / threads=17 / lookahead_threads=2 / sliced_threads=0 / nr=0 / decimate=1 / interlaced=0 / bluray_compat=0 / constrained_intra=0 / bframes=3 / b_pyramid=2 / b_adapt=1 / b_bias=0 / direct=3 / weightb=1 / open_gop=0 / weightp=2 / keyint=250 / keyint_min=23 / scenecut=40 / intra_refresh=0 / rc_lookahead=50 / rc=2pass / mbtree=1 / bitrate=4521 / ratetol=1.0 / qcomp=0.60 / qpmin=0 / qpmax=69 / qpstep=4 / cplxblur=20.0 / qblur=0.5 / ip_ratio=1.40 / aq=1:1.00
Default                                  : No
Forced                                   : No
DURATION                                 : 01:43:45.219000000
NUMBER_OF_FRAMES                         : 149256
NUMBER_OF_BYTES                          : 3517595431
_STATISTICS_WRITING_APP                  : mkvmerge v26.0.0 ('In The Game') 64-bit
_STATISTICS_WRITING_DATE_UTC             : 2018-09-21 13:27:42
_STATISTICS_TAGS                         : BPS DURATION NUMBER_OF_FRAMES NUMBER_OF_BYTES

Audio #1
ID                                       : 2
Format                                   : AC-3
Format/Info                              : Audio Coding 3
Mode extension                           : CM (complete main)
Format settings, Endianness              : Big
Codec ID                                 : A_AC3
Duration                                 : 1h 43mn
Bit rate mode                            : Constant
Bit rate                                 : 192 Kbps
Channel(s)                               : 2 channels
Channel positions                        : Front: L R
Sampling rate                            : 44.1 KHz
Bit depth                                : 16 bits
Compression mode                         : Lossy
Stream size                              : 142 MiB (3%)
Language                                 : German
Default                                  : Yes
Forced                                   : No

Audio #2
ID                                       : 3
Format                                   : DTS
Format/Info                              : Digital Theater Systems
Mode                                     : 16
Format settings, Endianness              : Big
Codec ID                                 : A_DTS
Duration                                 : 1h 43mn
Bit rate mode                            : Constant
Bit rate                                 : 1 509 Kbps
Channel(s)                               : 6 channels
Channel positions                        : Front: L C R, Side: L R, LFE
Sampling rate                            : 48.0 KHz
Bit depth                                : 24 bits
Compression mode                         : Lossy
Stream size                              : 1.09 GiB (24%)
Language                                 : English
Default                                  : No
Forced                                   : No

Text #1
ID                                       : 4
Format                                   : UTF-8
Codec ID                                 : S_TEXT/UTF8
Codec ID/Info                            : UTF-8 Plain Text
Language                                 : German
Default                                  : Yes
Forced                                   : Yes

Text #2
ID                                       : 5
Format                                   : UTF-8
Codec ID                                 : S_TEXT/UTF8
Codec ID/Info                            : UTF-8 Plain Text
Language                                 : English
Default                                  : No
Forced                                   : Yes


Download:
Share Online Share OnlineShare OnlineShare Online
 

Kommentare