Love Live! Sunshine!! 2nd Season (13) | Love Tyrant (12) | Love, Chunibyo and Other Delusions (13)3 3 2016-06-19The Last Ship - Shanzhai | Xscape Still Kickin It | Gifted Il Dono Del Talento 2017 DTS ITA ENG 1080p BluRay x264 BLUWORLD mkv
 


 

DNS SERVER AENDERNum der staatlichen Zensur zu umgehen. Sollten wir von eurem Provider geseprrt werden, nutzt den TOR BROWSER oder ändert euren DNS SERVER.

Filmwünsche können bei uns im Forum abgegeben werden

Wir Speichern Nicht




 
 
 
Top Releases
Chappie.2015.German.AC3.DL.1...
Solo.A.Star.Wars.Story.2018....
Der.Buchladen.der.Florance.G...
Jurassic.World.2.Das.gefalle...
Jurassic.World.2.Das.gefalle...
Racer.and.the.Jailbird.2017....
Racer.and.the.Jailbird.2017....
Racer.and.the.Jailbird.2017....
The.Girl.on.Train.2016.PROPE...
Solo.A.Star.Wars.Story.2018....

Cinedubs
First.Reformed.German.DL.AC3...
The.First.Purge.2018.German....
No.Way.Out.Gegen.die.Flammen...
First.Reformed.German.DL.AC3...
First.Reformed.German.DL.AC3...
The.First.Purge.German.DL.AC...
The.First.Purge.German.DL.AC...
Book.Club.Das.Beste.kommt.n...
Book.Club.Das.Beste.kommt.n...
Sicario.2.2018.German.AC3MD....

Neuerscheinungen 2017-18
The.Hurricane.Heist.2018.Ger...
Alte.Zoepfe.2018.German.DL.1...
Alte.Zoepfe.2018.German.DL.7...
Gosford.Park.2001.MULTi.COMP...
Steig.Nicht.Aus.2018.German....
Steig.Nicht.Aus.2018.German....
Triassic.World.2018.German.7...
Triassic.World.2018.German.D...
Steig.Nicht.Aus.2018.GERMAN....
Triassic.World.2018.MULTi.CO...

XXX
GroupSexGames.18.09.09.Wendy...
HerLimit.18.09.07.Giorgia.Ro...
Granny.Goes.Hard.XXX.1080p.W...
Horny.Shopping.Tour.XXX.720p...
ATKGirlfriends.18.09.10.Lucy...
From.Teen.Ass.To.Teen.Mouth....
GirlsOutWest.18.09.10.Trilli...
Huge.Nipples.Huge.Tits.23.XX...
HouseOfTaboo.18.09.07.Molly....
GirlsOutWest.18.09.09.Jessie...
ATKHairy.18.09.09.Helen.Volg...
GroupBanged.18.09.10.Horny.B...
Granny.Goes.Hard.XXX.720p.WE...
Hole.Lotta.Love.3.XXX.1080p....
Huge.Nipples.Huge.Tits.23.XX...
GangbangCreampie.18.09.07.G1...
Horny.Shopping.Tour.XXX.1080...
HardX.18.09.07.Candice.Dare....
GirlsGoneWild.18.09.03.Brook...
FullyClothedPissing.18.09.09...

3D
Solo.A.Star.Wars.Story.3D.20...
Solo.A.Star.Wars.Story.3D.20...
Die.Biene.Maja.2.Die.Honigsp...
Avengers.Infinity.War.3D.201...
Avengers.Infinity.War.3D.201...
Rampage.Big.Meets.Bigger.3D....
Rampage.Big.Meets.Bigger.3D....
Rampage.Big.Meets.Bigger.3D....
Winter.Games.3D.2013.DUAL.CO...
Tomb.Raider.3D.2018.German.7...
Rampage.Big.Meets.Bigger.3D....
Rampage.Big.Meets.Bigger.3D....
Tomb.Raider.3D.2018.MULTi.CO...
Pacific.Rim.Uprising.3D.2018...
Ready.Player.One.3D.2018.Ger...

Old_Stuff
How.I.Met.Your.Mother.S02.Ge...
Akte.X.S01.German.DTS.DL.108...
Den.Himmel.gibts.echt.DL.108...
Vikings.S02.German.DL.1080p....
Be.Kind.Rewind.Abgedreht.200...
Be.Kind.Rewind.Abgedreht.200...
Dracula.The.Dark.Lord.2012.G...
21.2008.German.DL.1080p.BluR...
Achtung.fertig.WK.Swissgerma...
The.Ouija.Exorcism.2015.MULT...
Meine.liebe.Rabenmutter.germ...
Da.Vincis.Demons.S01.Complet...
Eragon.Das.Vermaechtnis.der....
Adele.und.das.Geheimnis.des....
Die.fabelhafte.Welt.der.Amel...

Filme
MotoGP.Moto2.Moto3.Saison.20...
Straw.Dogs.Wer.Gewalt.saet.2...
MotoGP.Moto2.Moto3.Saison.20...
Cardinal.S01D01+2.MULTi.COMP...
The.Flash.2014.S04.GERMAN.10...
Modern.Family.S08.GERMAN.DUB...
Modern.Family.S08.GERMAN.DUB...
Marvels.Agents.of.S.H.I.E.L....
Marvels.Agents.of.S.H.I.E.L....
Duff.Hast.du.keine.bist.du.e...
Zwischen.Himmel.und.Hoelle.1...
Natty.Ganns.Reise.Ins.Abente...
Saw.VI.UNRATED.2009.German.A...
Saw.IV.UNRATED.2007.German.A...
Out.for.a.Kill.2003.German.7...
Out.for.a.Kill.2003.German.D...
The.Purge.S01.German.DD+51.D...
The.Purge.S01.German.DD+51.D...
The.Flash.2014.S04.GERMAN.72...
Gotham.S04.GERMAN.720p.HDTV....
The.Dentist.1996.German.1080...
Eves.Bayou.1997.German.1080p...
Eves.Bayou.1997.German.720p....
Deadfall.1993.German.1080p.W...

 
 
Solo.A.Star.Wars.Story.2018.German.AC3.DL.1080p.BluRay.x265-FuN

Jahr: 2018
Genre: Action, Sci-Fi
Sprache: Deutsch AC3 | Englisch AC3
Laufzeit: 2h 14mn
Bitrate: 2 690 Kbps
Format: MKV
Größe: 2.53 GiB
Release:

Beschreibung:

Ungefähr zehn Jahre vor „Star Wars: Episode IV“: Han Solo (Alden Ehrenreich), der sich ohne Eltern in den rauen Straßen seines Heimatplaneten Corellia durchschlagen musste und später von der imperialen Flugakademie geworfen wurde, hat seinen eigenen Kopf. Den versucht er sich genauso zu bewahren wie seinen Idealismus. „Vertraue niemandem“, rät ihm dagegen sein Mentor Tobias Beckett (Woody Harrelson) - bevor ihn ein anderer zwielichtiger Gangster, Dryden Vos (Paul Bettany), für einen Zugüberfall rekrutiert. Begleitet wird Han dabei unter anderem von seinem neuen, treuen Freund Chewbacca (Joonas Suotamo) und von mehr oder weniger vertrauenswürdigen Kumpanen. Darunter sind Qi'Ra (Emilia Clarke), die für eine Gang auf Corellia arbeitet und Han von früher kennt, und Val (Thandie Newton), eine Meisterin am Blaster-Gewehr. Außerdem mischt Schmuggler Lando Calrissian (Donald Glover) mit, der Besitzer des Millennium Falken…



Complete name                            : Solo.A.Star.Wars.Story.x265.mkv
Format                                   : Matroska
Format version                           : Version 4 / Version 2
File size                                : 2.53 GiB
Duration                                 : 2h 14mn
Overall bit rate                         : 2 690 Kbps
Movie name                               : Solo: A Star Wars Story
Encoded date                             : UTC 2018-09-19 13:00:17
Writing application                      : HandBrake 20180918190840-b128aa8-master 2018091901
Writing library                          : Lavf58.12.100

Video
ID                                       : 1
Format                                   : HEVC
Format/Info                              : High Efficiency Video Coding
Format profile                           : Main@L4.0
Codec ID                                 : V_MPEGH/ISO/HEVC
Duration                                 : 2h 14mn
Bit rate                                 : 1 868 Kbps
Width                                    : 1 920 pixels
Height                                   : 804 pixels
Display aspect ratio                     : 2.40:1
Frame rate mode                          : Constant
Frame rate                               : 23.976 fps
Color space                              : YUV
Chroma subsampling                       : 4:2:0
Bit depth                                : 8 bits
Bits/(Pixel*Frame)                       : 0.050
Stream size                              : 1.76 GiB (69%)
Writing library                          : x265 2.8:[Windows][GCC 7.1.0][64 bit] 8bit+10bit+12bit
Encoding settings                        : cpuid=1111039 / frame-threads=3 / numa-pools=8 / wpp / no-pmode / no-pme / no-psnr / no-ssim / log-level=2 / input-csp=1 / input-res=1920x804 / interlace=0 / total-frames=0 / level-idc=0 / high-tier=1 / uhd-bd=0 / ref=3 / no-allow-non-conformance / no-repeat-headers / annexb / no-aud / no-hrd / info / hash=0 / no-temporal-layers / open-gop / min-keyint=24 / keyint=240 / gop-lookahead=0 / bframes=4 / b-adapt=2 / b-pyramid / bframe-bias=0 / rc-lookahead=20 / lookahead-slices=5 / scenecut=40 / radl=0 / no-intra-refresh / ctu=64 / min-cu-size=8 / no-rect / no-amp / max-tu-size=32 / tu-inter-depth=1 / tu-intra-depth=1 / limit-tu=0 / rdoq-level=0 / dynamic-rd=0.00 / no-ssim-rd / signhide / no-tskip / nr-intra=0 / nr-inter=0 / no-constrained-intra / no-strong-intra-smoothing / max-merge=2 / limit-refs=3 / no-limit-modes / me=1 / subme=2 / merange=57 / temporal-mvp / weightp / no-weightb / no-analyze-src-pics / deblock=0:0 / no-sao / no-sao-non-deblock / rd=3 / no-early-skip / rskip / no-fast-intra / no-tskip-fast / no-cu-lossless / no-b-intra / no-splitrd-skip / rdpenalty=0 / psy-rd=2.00 / psy-rdoq=0.00 / no-rd-refine / no-lossless / cbqpoffs=0 / crqpoffs=0 / rc=crf / crf=20.0 / qcomp=0.60 / qpstep=4 / stats-write=0 / stats-read=0 / ipratio=1.40 / pbratio=1.30 / aq-mode=1 / aq-strength=1.00 / cutree / zone-count=0 / no-strict-cbr / qg-size=32 / no-rc-grain / qpmax=69 / qpmin=0 / no-const-vbv / sar=1 / overscan=0 / videoformat=5 / range=0 / colorprim=1 / transfer=1 / colormatrix=1 / chromaloc=0 / display-window=0 / max-cll=0,0 / min-luma=0 / max-luma=255 / log2-max-poc-lsb=8 / vui-timing-info / vui-hrd-info / slices=1 / no-opt-qp-pps / no-opt-ref-list-length-pps / no-multi-pass-opt-rps / scenecut-bias=0.05 / no-opt-cu-delta-qp / no-aq-motion / no-hdr / no-hdr-opt / no-dhdr10-opt / no-idr-recovery-sei / analysis-reuse-level=5 / scale-factor=0 / refine-intra=0 / refine-inter=0 / refine-mv=0 / no-limit-sao / ctu-info=0 / no-lowpass-dct / refine-mv-type=0 / copy-pic=1 / max-ausize-factor=1.0 / no-dynamic-refine / no-single-sei
Default                                  : Yes
Forced                                   : No
DURATION                                 : 02:14:46.709000000

Audio #1
ID                                       : 2
Format                                   : AC-3
Format/Info                              : Audio Coding 3
Mode extension                           : CM (complete main)
Format settings, Endianness              : Big
Codec ID                                 : A_AC3
Duration                                 : 2h 14mn
Bit rate mode                            : Constant
Bit rate                                 : 384 Kbps
Channel(s)                               : 6 channels
Channel positions                        : Front: L C R, Side: L R, LFE
Sampling rate                            : 48.0 KHz
Bit depth                                : 16 bits
Compression mode                         : Lossy
Delay relative to video                  : -5ms
Stream size                              : 370 MiB (14%)
Title                                    : Surround
Language                                 : German
Default                                  : Yes
Forced                                   : No
DURATION                                 : 02:14:46.752000000

Audio #2
ID                                       : 3
Format                                   : AC-3
Format/Info                              : Audio Coding 3
Mode extension                           : CM (complete main)
Format settings, Endianness              : Big
Codec ID                                 : A_AC3
Duration                                 : 2h 14mn
Bit rate mode                            : Constant
Bit rate                                 : 384 Kbps
Channel(s)                               : 6 channels
Channel positions                        : Front: L C R, Side: L R, LFE
Sampling rate                            : 48.0 KHz
Bit depth                                : 16 bits
Compression mode                         : Lossy
Delay relative to video                  : -5ms
Stream size                              : 370 MiB (14%)
Title                                    : Surround
Language                                 : English
Default                                  : No
Forced                                   : No
DURATION                                 : 02:14:46.720000000

Text #1
ID                                       : 4
Format                                   : PGS
Codec ID                                 : S_HDMV/PGS
Codec ID/Info                            : The same subtitle format used on BDs/HD-DVDs
Language                                 : German
Default                                  : No
Forced                                   : No
DURATION                                 : 02:07:34.423000000

Text #2
ID                                       : 5
Format                                   : PGS
Codec ID                                 : S_HDMV/PGS
Codec ID/Info                            : The same subtitle format used on BDs/HD-DVDs
Language                                 : German
Default                                  : Yes
Forced                                   : Yes
DURATION                                 : 01:20:32.103000000

Text #3
ID                                       : 6
Format                                   : PGS
Codec ID                                 : S_HDMV/PGS
Codec ID/Info                            : The same subtitle format used on BDs/HD-DVDs
Language                                 : English
Default                                  : No
Forced                                   : No
DURATION                                 : 02:06:01.747000000


Download:
Share Online Share OnlineShare OnlineShare Online
 

Kommentare