Lexx (10) | The Magnificent Seven (2016) BRRip Full Hindi Dubbed Movie Watch Online Watch The Magnificent Seven (2016) BRRip Full Hindi Dubbed Movie & Download Free. Hindi Dubbed Movie The Magnificent Seven (2016) BRRip Full Cast and Crew Details. Film Name :- The Magnificent Seven (2016) BRRip Film Directed By :- Antoine Fuqua Film Written by-- Akira Kurosawa, Shinobu Hashimoto Starring of the Film :- Denzel Washington, Chris Pratt, Ethan Hawke Genres -: Action | Western Origin Country -- ... | Chill & Relax Nature — Ambient, HD Video & Sound 1.1Shonda Rhimes | Eps10 Rescue Me - Season 6 | Eps13 Hunters - Season 1
 


 

DNS SERVER AENDERNum der staatlichen Zensur zu umgehen. Sollten wir von eurem Provider geseprrt werden, nutzt den TOR BROWSER oder ändert euren DNS SERVER.

Filmwünsche können bei uns im Forum abgegeben werden

Wir Speichern Nicht




 
 
 
Top Releases
Wo.steckt.Sidney.Hall.2017.G...
Chappie.2015.German.AC3.DL.1...
Solo.A.Star.Wars.Story.2018....
Der.Buchladen.der.Florance.G...
Jurassic.World.2.Das.gefalle...
Jurassic.World.2.Das.gefalle...
Racer.and.the.Jailbird.2017....
Racer.and.the.Jailbird.2017....
Racer.and.the.Jailbird.2017....
The.Girl.on.Train.2016.PROPE...

Cinedubs
Mamma.Mia.2.Here.We.Go.Again...
First.Reformed.German.DL.AC3...
The.First.Purge.2018.German....
No.Way.Out.Gegen.die.Flammen...
First.Reformed.German.DL.AC3...
First.Reformed.German.DL.AC3...
The.First.Purge.German.DL.AC...
The.First.Purge.German.DL.AC...
Book.Club.Das.Beste.kommt.n...
Book.Club.Das.Beste.kommt.n...

Neuerscheinungen 2017-18
Jurassic.World.2.Das.gefalle...
Jurassic.World.2.Das.gefalle...
Zombie.Nightmare.1987.MULTi....
The.Boneyard.1991.MULTi.COMP...
Rueckenwind.von.vorn.2018.Ge...
Rueckenwind.von.vorn.2018.Ge...
The.Hurricane.Heist.2018.Ger...
Alte.Zoepfe.2018.German.DL.1...
Alte.Zoepfe.2018.German.DL.7...
Gosford.Park.2001.MULTi.COMP...

XXX
Natsu.No.Omoide.2.XXX.1080p....
My.First.Transsexual.10.XXX....
MonstersOfCock.18.09.09.Bren...
NaughtyOffice.18.09.09.Gia.D...
MySistersHotFriend.18.09.10....
My.First.Transsexual.10.XXX....
MyFamilyPies.18.09.09.Eliza....
MeloneChallenge.18.09.08.Wen...
MatureNL.18.09.06.Agness.XXX...
MySistersHotFriend.18.09.07....
Model.Collection.77.XXX.1080...
MilfsLikeItBig.18.09.07.Kayl...
MilfHunter.18.09.10.Ryan.Smi...
Model.Collection.54.XXX.1080...
NFBusty.18.09.07.Bridgette.B...
My.Baby.Got.Back.Whitewashed...
Natsu.No.Omoide.2.XXX.720p.W...
MatureNL.18.09.04.Sarah.Jane...
MonsterCurves.18.09.07.Bridg...
MetArtX.18.09.10.Kitri.Danci...

3D
Solo.A.Star.Wars.Story.3D.20...
Solo.A.Star.Wars.Story.3D.20...
Die.Biene.Maja.2.Die.Honigsp...
Avengers.Infinity.War.3D.201...
Avengers.Infinity.War.3D.201...
Rampage.Big.Meets.Bigger.3D....
Rampage.Big.Meets.Bigger.3D....
Rampage.Big.Meets.Bigger.3D....
Winter.Games.3D.2013.DUAL.CO...
Tomb.Raider.3D.2018.German.7...
Rampage.Big.Meets.Bigger.3D....
Rampage.Big.Meets.Bigger.3D....
Tomb.Raider.3D.2018.MULTi.CO...
Pacific.Rim.Uprising.3D.2018...
Ready.Player.One.3D.2018.Ger...

Old_Stuff
How.I.Met.Your.Mother.S02.Ge...
Akte.X.S01.German.DTS.DL.108...
Den.Himmel.gibts.echt.DL.108...
Vikings.S02.German.DL.1080p....
Be.Kind.Rewind.Abgedreht.200...
Be.Kind.Rewind.Abgedreht.200...
Dracula.The.Dark.Lord.2012.G...
21.2008.German.DL.1080p.BluR...
Achtung.fertig.WK.Swissgerma...
The.Ouija.Exorcism.2015.MULT...
Meine.liebe.Rabenmutter.germ...
Da.Vincis.Demons.S01.Complet...
Eragon.Das.Vermaechtnis.der....
Adele.und.das.Geheimnis.des....
Die.fabelhafte.Welt.der.Amel...

Filme
Saw.I.Directors.Cut.2004.Ger...
Vier.im.roten.Kreis.1970.Ger...
Liebe.auf.den.ersten.Schlag....
Alter.Ego.Noch.groessere.Pro...
Der.phantastische.Planet.197...
Der.phantastische.Planet.197...
Agatha.Christies.Ein.Unbekan...
Agatha.Christies.Ein.Unbekan...
Argo.2012.German.DL.2160p.UH...
MotoGP.Moto2.Moto3.Saison.20...
MotoGP.Moto2.Moto3.Saison.20...
Saw.V.UNRATED.2008.German.AC...
The.Octagon.1980.MULTi.COMPL...
Saw.II.Directors.Cut.2005.Ge...
Fackeln.im.Sturm.aka.North.a...
Thank.You.for.Smoking.2005.G...
Buffy.Der.Vampir-Killer.1992...
Sinuhe.der.Aegypter.1954.Ger...
Narcos.S03D01-3.MULTi.COMPLE...
Devils.Pass.2013.German.DL.1...
Wen.die.Geister.lieben.2008....
Karambolage.1963.German.AC3D...
Cleaner.Sein.Geschaeft.ist.d...
Bella.Martha.2001.GERMAN.108...

 
 
Alter.Ego.Noch.groessere.Probleme.2012.German.DL.1080p.BluRay.x264-DOUCEMENT

Jahr: 2012
Genre: Komödie
Sprache: Deutsch DTS | Englisch DTS
Laufzeit: 1h 16mn
Bitrate: 10.2 Mbps
Format: MKV
Größe: 5.46 GiB
Release:

Beschreibung:

In einer der unseren nicht ganz unähnlichen Welt haben Superhelden das Verbrechen in die Knie gezwungen, und werden seither nicht mehr gebraucht bzw. mit Steuergeldern finanziert. Brendan alias “The Fridge” aber hat gerade ganz andere Sorgen: Seine Freundin hintergeht ihn nämlich mit seinem Superhelden-Alter-Ego. Und dann ist da noch diese mysteriöse Mission. Er und sein alter Kumpel, der Durchblicker “C-Thru”, sollen einen in der Provinz festgesetzten Superbösewicht verhaften. Doch der “Shrink” hat eine Überraschung für “The Fridge”.



Complete name                            : alter.ego.noch.groessere.probleme.2012.german.dl.1080p.bluray.x264-doucement.mkv
Format                                   : Matroska
Format version                           : Version 4 / Version 2
File size                                : 5.46 GiB
Duration                                 : 1h 16mn
Overall bit rate                         : 10.2 Mbps
Encoded date                             : UTC 2015-05-29 20:41:43
Writing application                      : mkvmerge v7.9.0 ('Birds') 64bit
Writing library                          : libebml v1.3.1 + libmatroska v1.4.2
DURATION                                 : 00:49:32.178000000
NUMBER_OF_FRAMES                         : 2
NUMBER_OF_BYTES                          : 41
_STATISTICS_WRITING_APP                  : mkvmerge v7.9.0 ('Birds') 64bit
_STATISTICS_WRITING_DATE_UTC             : 2015-05-29 20:41:43
_STATISTICS_TAGS                         : BPS DURATION NUMBER_OF_FRAMES NUMBER_OF_BYTES

Video
ID                                       : 1
Format                                   : AVC
Format/Info                              : Advanced Video Codec
Format profile                           : High@L4.1
Format settings, CABAC                   : Yes
Format settings, ReFrames                : 5 frames
Codec ID                                 : V_MPEG4/ISO/AVC
Duration                                 : 1h 16mn
Bit rate                                 : 7 139 Kbps
Width                                    : 1 920 pixels
Height                                   : 824 pixels
Display aspect ratio                     : 2.35:1
Frame rate mode                          : Constant
Frame rate                               : 23.976 fps
Color space                              : YUV
Chroma subsampling                       : 4:2:0
Bit depth                                : 8 bits
Scan type                                : Progressive
Bits/(Pixel*Frame)                       : 0.188
Stream size                              : 3.73 GiB (68%)
Writing library                          : x264 core 146 r2538 121396c
Encoding settings                        : cabac=1 / ref=5 / deblock=1:-1:-1 / analyse=0x3:0x113 / me=umh / subme=8 / psy=1 / psy_rd=1.00:0.15 / mixed_ref=1 / me_range=16 / chroma_me=1 / trellis=1 / 8x8dct=1 / cqm=0 / deadzone=21,11 / fast_pskip=0 / chroma_qp_offset=-3 / threads=6 / lookahead_threads=1 / sliced_threads=0 / nr=0 / decimate=1 / interlaced=0 / bluray_compat=0 / constrained_intra=0 / bframes=3 / b_pyramid=2 / b_adapt=2 / b_bias=0 / direct=3 / weightb=1 / open_gop=0 / weightp=2 / keyint=250 / keyint_min=23 / scenecut=40 / intra_refresh=0 / rc_lookahead=50 / rc=2pass / mbtree=1 / bitrate=7139 / ratetol=1.0 / qcomp=0.60 / qpmin=0 / qpmax=69 / qpstep=4 / cplxblur=20.0 / qblur=0.5 / ip_ratio=1.40 / aq=1:1.00
Language                                 : English
Default                                  : Yes
Forced                                   : No
DURATION                                 : 01:16:58.656000000
NUMBER_OF_FRAMES                         : 110737
NUMBER_OF_BYTES                          : 4120262227
_STATISTICS_WRITING_APP                  : mkvmerge v7.9.0 ('Birds') 64bit
_STATISTICS_WRITING_DATE_UTC             : 2015-05-29 20:41:43
_STATISTICS_TAGS                         : BPS DURATION NUMBER_OF_FRAMES NUMBER_OF_BYTES

Audio #1
ID                                       : 2
Format                                   : DTS
Format/Info                              : Digital Theater Systems
Mode                                     : 16
Format settings, Endianness              : Big
Codec ID                                 : A_DTS
Duration                                 : 1h 16mn
Bit rate mode                            : Constant
Bit rate                                 : 1 509 Kbps
Channel(s)                               : 6 channels
Channel positions                        : Front: L C R, Side: L R, LFE
Sampling rate                            : 48.0 KHz
Bit depth                                : 24 bits
Compression mode                         : Lossy
Stream size                              : 831 MiB (15%)
Language                                 : German
Default                                  : Yes
Forced                                   : No

Audio #2
ID                                       : 3
Format                                   : DTS
Format/Info                              : Digital Theater Systems
Mode                                     : 16
Format settings, Endianness              : Big
Codec ID                                 : A_DTS
Duration                                 : 1h 16mn
Bit rate mode                            : Constant
Bit rate                                 : 1 509 Kbps
Channel(s)                               : 6 channels
Channel positions                        : Front: L C R, Side: L R, LFE
Sampling rate                            : 48.0 KHz
Bit depth                                : 24 bits
Compression mode                         : Lossy
Stream size                              : 831 MiB (15%)
Language                                 : English
Default                                  : No
Forced                                   : No

Text
ID                                       : 4
Format                                   : UTF-8
Codec ID                                 : S_TEXT/UTF8
Codec ID/Info                            : UTF-8 Plain Text
Language                                 : German
Default                                  : Yes
Forced                                   : Yes


Download:
Share Online Share OnlineShare OnlineShare Online
 

Kommentare