Новая газета №70 (2018) PDF | RAW FOOTAGE - [DODI Repack] | Watch now!Adventure 390 | épisode 10 The Blackboard Jungle | डाउनलोड APK
 


 

Filecrypt zeigt vereinzelt Files als "n/a". Die Downloads sind trotzdem komplett.

DNS SERVER AENDERNum der staatlichen Zensur zu umgehen. Sollten wir von eurem Provider geseprrt werden, nutzt den TOR BROWSER oder ändert euren DNS SERVER.

Filmwünsche können bei uns im Forum abgegeben werden

Wir Speichern Nicht




 
 
 
Top Releases
Star.Wars.Episode.VIII.Die.l...
Skyscraper.2018.German.720p....
Skyscraper.2018.German.DL.10...
Zoe.2018.German.DL.1080p.Blu...
Zoe.2018.GERMAN.720p.BluRay....
Zoe.2018.MULTi.COMPLETE.BLUR...
Oceans.8.2018.DUAL.COMPLETE....
Oceans.8.2018.German.DL.1080...
Meg.German.DL.AC3.Dubbed.720...
Meg.German.DL.AC3.Dubbed.108...

Cinedubs
10×10.2018.German.AC3D.DL.1...
10×10.2018.German.AC3D.DL.7...
Sicario.2.German.DL.AC3.Dubb...
Sicario.2.German.DL.AC3.Dubb...
Hotel.Artemis.German.DL.AC3....
Hotel.Artemis.German.DL.AC3....
Mission.Impossible.Fallout.2...
Mission.Impossible.Fallout.2...
BlacKkKlansman.2018.German.A...
BlacKkKlansman.2018.German.A...

Neuerscheinungen 2017-18
Over.the.Top.1987.German.DL....
Over.the.Top.1987.German.DTS...
Over.the.Top.1987.German.DTS...
Flying.Revolution.2017.GERMA...
Dead.Men.Das.Gold.der.Apache...
Flying.Revolution.2017.GERMA...
Mission.Yeti.Die.Abenteuer.v...
Mission.Yeti.Die.Abenteuer.v...
S.W.A.T.Unter.Verdacht.2017....
Terminal.Rache.war.nie.schoe...

XXX
AuntJudys.18.10.29.Luba.Gets...
ATKGirlfriends.18.10.28.Emil...
AbbyWinters.18.10.31.Danai.A...
AdultAuditions.E260.Gina.Pre...
BarbaraBieberOfficial.18.08....
BarbaraBieberOfficial.18.08....
Analized.18.10.29.Jessica.Re...
BarbaraBieberOfficial.18.08....
ArchAngel.18.10.31.Carmen.Va...
1000Facials.18.10.29.Britt.J...
AllOver30.18.10.30.Diana.V.M...
AnalTeenAngels.18.10.30.Bell...
Anilos.18.10.30.CJ.Bridge.Li...
AllGirlMassage.18.10.29.Silv...
Babes.18.10.29.Ember.Snow.Su...
AbbyWinters.18.10.30.Olga.V....
AssTraffic.18.10.31.Vyvan.Hi...
ALSScan.18.10.31.Sabina.Roug...
ATKHairy.18.10.28.Alexandra....
BarbaraBieberOfficial.18.08....

3D
Die.Unglaublichen.2.3D.2018....
Die.Unglaublichen.2.2018.3D....
Die.Unglaublichen.2.2018.3D....
Sharknado.6.The.Last.One.3D....
Deep.Kleine.Helden.der.Tiefs...
Deep.3D.2017.MULTI.COMPLETE....
Detective.Dee.und.die.Legend...
Detective.Dee.und.die.Legend...
Skyscraper.3D.German.DL.AC3....
Ant-Man.and.the.Wasp.2018.3D...
Jurassic.World.Das.gefallene...
Jurassic.World.Das.gefallene...
Best.of.3D.vol.10.-.12.GERMA...
Die.Biene.Maja.2.Die.Honigsp...
Sharknado.6.The.Last.One.3D....

Old_Stuff
Species.IV.Das.Erwachen.2007...
Species.IV.Das.Erwachen.2007...
Hotel.Transsilvanien.2012.Ge...
The.Dead.2010.German.DL.1080...
The.Dead.2.India.2013.German...
Britney.Spears.Live.The.Femm...
Buffy.The.Vampire.Slayer.199...
IMAX.Ride.Around.The.World.2...
Schimanski.-.Duisburg.Ruhror...
Akte.X.S02.German.DTS.DL.108...
How.I.Met.Your.Mother.S02.Ge...
Akte.X.S01.German.DTS.DL.108...
Den.Himmel.gibts.echt.DL.108...
Vikings.S02.German.DL.1080p....
Be.Kind.Rewind.Abgedreht.200...

Filme
Over.the.Top.1987.German.DTS...
Joshua.Der.Erstgeborene.2007...
City.of.God.2002.German.DL.A...
Prom.Night.1980.German.AC3.D...
Eiskalte.Engel.1999.German.D...
A.Serbian.Film.UNCUT.German....
Interceptor.1986.German.DL.A...
Star.Wars.Episode.I.Die.dunk...
Der.Blaufuchs.1938.German.10...
Hot.Rod.Mit.Vollgas.durch.di...
The.Texas.Chainsaw.Massacre....
The.Terminators.2009.German....
Deutschland.83.S01.COMPLETE....
Star.Wars.Episode.V.Das.Impe...
Jack.and.the.Giants.2013.UNC...
Herrscher.der.Insel.1970.Ger...
Matrix.Trilogie.1999-2003.Ge...
Undercover.In.Too.Deep.1999....
Moulin.Rouge.1952.German.AC3...
S.W.A.T.Unter.Verdacht.2017....
Star.Wars.Episode.V.Das.Impe...
Das.Leben.Ein.Sechserpack.19...
Constantine.City.of.Demons.2...
Gesetz.der.Rache.German.2009...

 
 
Star.Wars.Episode.I.Die.dunkle.Bedrohung.SE.PROPER.1999.German.DL.AC3.1080p.BluRay.x265-FuN

Jahr: 1999
Genre: Sci-Fi , Abenteuer , Fantasy
Sprache: Deutsch AC3 | Englisch AC3
Laufzeit: 2h 16mn
Bitrate: 3 244 Kbps
Format: MKV
Größe: 3.09 GiB
Release:

Beschreibung:

Der Hohe Rat der Jedi schickt den Jedi-Ritter Qui-Gon Jinn (Liam Neeson) und seinen Padawan Obi-Wan Kenobi (Ewan McGregor) zwecks Friedensverhandlungen nach Naboo, denn der eigentlich friedliche, von der schönen Königin Amidala (Natalie Portman) regierte Planet, wird von der geldgierigen Handelsförderation besetzt. Doch noch bevor die Jedis auf Naboo ankommen, werden sie von Kampfdroiden der Handelsföderation angegriffen. Qui-Gon und Obi-Wan kämpfen sich durch und schaffen es in die Hauptstadt von Naboo, befreien dort die Königin und fliehen gemeinsam mit ihr. Die Flucht führt sie nach Tatooine, einem Wüstenplanet. Dort treffen sie auf den Sklavenjungen Anakin Skywalker (Jake Lloyd), in dem Qui-Gon eine ungewöhnlich starke Begabung für die Macht erkennt. Obi-Wan ist skeptisch, doch sein Meister will sich dem Jungen trotzdem annehmen…




Format                                   : Matroska
Format version                           : Version 4 / Version 2
File size                                : 3.09 GiB
Duration                                 : 2h 16mn
Overall bit rate                         : 3 244 Kbps
Encoded date                             : UTC 2018-09-28 17:09:22
Writing application                      : mkvmerge v26.0.0 ('In The Game') 64-bit
Writing library                          : libebml v1.3.6 + libmatroska v1.4.9
DURATION                                 : 02:14:09.459000000
NUMBER_OF_FRAMES                         : 2876
NUMBER_OF_BYTES                          : 46146292
_STATISTICS_WRITING_APP                  : mkvmerge v26.0.0 ('In The Game') 64-bit
_STATISTICS_WRITING_DATE_UTC             : 2018-09-28 17:09:22
_STATISTICS_TAGS                         : BPS DURATION NUMBER_OF_FRAMES NUMBER_OF_BYTES

Video
ID                                       : 1
Format                                   : HEVC
Format/Info                              : High Efficiency Video Coding
Format profile                           : Main@L4.0
Codec ID                                 : V_MPEGH/ISO/HEVC
Duration                                 : 2h 16mn
Bit rate                                 : 2 411 Kbps
Width                                    : 1 920 pixels
Height                                   : 816 pixels
Display aspect ratio                     : 2.35:1
Frame rate mode                          : Constant
Frame rate                               : 23.976 fps
Color space                              : YUV
Chroma subsampling                       : 4:2:0
Bit depth                                : 8 bits
Bits/(Pixel*Frame)                       : 0.064
Stream size                              : 2.29 GiB (74%)
Writing library                          : x265 2.6:[Windows][GCC 7.3.0][64 bit] 8bit+10bit+12bit
Encoding settings                        : cpuid=1050111 / frame-threads=2 / numa-pools=4 / wpp / no-pmode / no-pme / no-psnr / no-ssim / log-level=2 / input-csp=1 / input-res=1920x816 / interlace=0 / total-frames=0 / level-idc=0 / high-tier=1 / uhd-bd=0 / ref=3 / no-allow-non-conformance / no-repeat-headers / annexb / no-aud / no-hrd / info / hash=0 / no-temporal-layers / open-gop / min-keyint=24 / keyint=240 / bframes=4 / b-adapt=2 / b-pyramid / bframe-bias=0 / rc-lookahead=20 / lookahead-slices=5 / scenecut=40 / no-intra-refresh / ctu=64 / min-cu-size=8 / no-rect / no-amp / max-tu-size=32 / tu-inter-depth=1 / tu-intra-depth=1 / limit-tu=0 / rdoq-level=0 / dynamic-rd=0.00 / no-ssim-rd / signhide / no-tskip / nr-intra=0 / nr-inter=0 / no-constrained-intra / no-strong-intra-smoothing / max-merge=2 / limit-refs=3 / no-limit-modes / me=1 / subme=2 / merange=57 / temporal-mvp / weightp / no-weightb / no-analyze-src-pics / deblock=0:0 / no-sao / no-sao-non-deblock / rd=3 / no-early-skip / rskip / no-fast-intra / no-tskip-fast / no-cu-lossless / no-b-intra / no-splitrd-skip / rdpenalty=0 / psy-rd=2.00 / psy-rdoq=0.00 / no-rd-refine / analysis-reuse-mode=0 / no-lossless / cbqpoffs=0 / crqpoffs=0 / rc=crf / crf=20.0 / qcomp=0.60 / qpstep=4 / stats-write=0 / stats-read=0 / ipratio=1.40 / pbratio=1.30 / aq-mode=1 / aq-strength=1.00 / cutree / zone-count=0 / no-strict-cbr / qg-size=32 / no-rc-grain / qpmax=69 / qpmin=0 / no-const-vbv / sar=1 / overscan=0 / videoformat=5 / range=0 / colorprim=1 / transfer=1 / colormatrix=1 / chromaloc=0 / display-window=0 / max-cll=0,0 / min-luma=0 / max-luma=255 / log2-max-poc-lsb=8 / vui-timing-info / vui-hrd-info / slices=1 / no-opt-qp-pps / no-opt-ref-list-length-pps / no-multi-pass-opt-rps / scenecut-bias=0.05 / no-opt-cu-delta-qp / no-aq-motion / no-hdr / no-hdr-opt / no-dhdr10-opt / analysis-reuse-level=5 / scale-factor=0 / refine-intra=0 / refine-inter=0 / refine-mv=0 / no-limit-sao / ctu-info=0 / no-lowpass-dct / refine-mv-type=0 / copy-pic=1
Default                                  : Yes
Forced                                   : No
DURATION                                 : 02:16:10.913000000
NUMBER_OF_FRAMES                         : 195906
NUMBER_OF_BYTES                          : 2485531907
_STATISTICS_WRITING_APP                  : mkvmerge v26.0.0 ('In The Game') 64-bit
_STATISTICS_WRITING_DATE_UTC             : 2018-09-28 17:09:22
_STATISTICS_TAGS                         : BPS DURATION NUMBER_OF_FRAMES NUMBER_OF_BYTES

Audio #1
ID                                       : 2
Format                                   : AC-3
Format/Info                              : Audio Coding 3
Mode extension                           : CM (complete main)
Format settings, Endianness              : Big
Codec ID                                 : A_AC3
Duration                                 : 2h 16mn
Bit rate mode                            : Constant
Bit rate                                 : 384 Kbps
Channel(s)                               : 6 channels
Channel positions                        : Front: L C R, Side: L R, LFE
Sampling rate                            : 48.0 KHz
Bit depth                                : 16 bits
Compression mode                         : Lossy
Stream size                              : 374 MiB (12%)
Title                                    : Surround
Language                                 : German
Default                                  : Yes
Forced                                   : No
DURATION                                 : 02:16:10.912000000
NUMBER_OF_FRAMES                         : 255341
NUMBER_OF_BYTES                          : 392203776
_STATISTICS_WRITING_APP                  : mkvmerge v26.0.0 ('In The Game') 64-bit
_STATISTICS_WRITING_DATE_UTC             : 2018-09-28 17:09:22
_STATISTICS_TAGS                         : BPS DURATION NUMBER_OF_FRAMES NUMBER_OF_BYTES

Audio #2
ID                                       : 3
Format                                   : AC-3
Format/Info                              : Audio Coding 3
Mode extension                           : CM (complete main)
Format settings, Endianness              : Big
Codec ID                                 : A_AC3
Duration                                 : 2h 16mn
Bit rate mode                            : Constant
Bit rate                                 : 384 Kbps
Channel(s)                               : 6 channels
Channel positions                        : Front: L C R, Side: L R, LFE
Sampling rate                            : 48.0 KHz
Bit depth                                : 16 bits
Compression mode                         : Lossy
Stream size                              : 374 MiB (12%)
Title                                    : Surround
Language                                 : English
Default                                  : No
Forced                                   : No
DURATION                                 : 02:16:10.912000000
NUMBER_OF_FRAMES                         : 255341
NUMBER_OF_BYTES                          : 392203776
_STATISTICS_WRITING_APP                  : mkvmerge v26.0.0 ('In The Game') 64-bit
_STATISTICS_WRITING_DATE_UTC             : 2018-09-28 17:09:22
_STATISTICS_TAGS                         : BPS DURATION NUMBER_OF_FRAMES NUMBER_OF_BYTES



Download:
Share Online Share OnlineShare OnlineShare Online
 

Kommentare